incredibles 2 office 2019 dtone Better Call Saul Better Call Saul s04e08 the ant man The Man In The High Castle ita Venom ita 2018 ita EVO ethd Blue Bloods S09E02 young sheldon the meg ant man 1080p 2018 solo vikings Crazy Rich Asians 0 evo avengers ant man and the wasp Z nation big bang theory the good place american horror story big bang theory español mission impossible fallout Crnci (2009) etmovies the good doctor etrg arrow español better call saul s04e09 modern family the walking dead LESBIAN ANAL SEX SLAVES greys anatomy The Big Bang Theory venom 2018 jurassic world ddr 1080p YIFY game of thrones wwe super show down The Big Bang Theory s12e03 Ant-Man and the Wasp Star Trek discovery UFC DTONE venom a star is born blue bloods wwe Shadow of the Tomb Raider fgt 2160p the last ship ettv speechless s03e01 HINDI elementary ita MacGyver s03e02 Fear the walking dead van helsing bbc formula 1 criminal minds star trek discovery español 
Warning! Use a VPN When Downloading Torrents!
Your IP Address is 136.243.35.158. Location is Germany
Your Internet Provider is tracking your torrent activity! Hide your IP ADDRESS with a VPN!
We strongly recommend using NordVPN to anonymize your torrenting. 30 Day Money Back Guarantee!
Try it Now!
ETTV Recommended TV Shows
Shameless.US.S09E05.WEB.h264-CONVOY[ettv] torrent
Ghost.Adventures.S16E10.Astoria.Underground.iNTERNAL.720p.HDTV.x264-DHD[ettv] torrent
UFC 229 Khabib vs McGregor HDTV x264-Star [TJET] torrent
Saturday.Night.Live.S44E02.Awkwafina.WEB.x264-TBS[ettv] torrent

ETTV Recommended Xvid
Playing.with.Dolls.Havoc.2018.BDRip.XviD.AC3-EVO torrent
A Childs Voice.2018.HDRip.XviD.AC3-EVO torrent
Dance!.2018.HDRip.XviD.AC3-EVO[EtMovies] torrent
Alien Surveillance.2018.DVDRip.XviD-EVO torrent

ETTV Recommended HD
Bayou.Caviar.2018.1080p.WEB-DL.DD5.1.H264-CMRG[EtHD] torrent
Malevolent.2018.1080p.NF.WEB-DL.DD+5.1.H264-CMRG[EtHD] torrent
Imagination.Land.2018.1080p.WEB-DL.H264.AC3-EVO[EtHD] torrent
Ant-man.And.The.Wasp.2018.1080p.BluRay.x264.DTS-HD.MA.7.1-HDChina[EtHD] torrent

ETTV Recommended UHD
The.First.Purge.2018.UHD.2160p.BluRay.Remux.Hevc.HDR-DTOne torrent
2.Fast.2.Furious.2003.UHD.2160p.BluRay.Remux.Hevc.HDR-DTOne torrent
Skyscraper.2018.UHD.2160p.BluRay.Remux.Hevc.Atmos.7.1-DTOne torrent
Pawo.2016.UHD.2160p.BluRay.x265.HDR.DTS-HDMA.5.1-DTOne torrent

ETTV Recommended Cam
Hellfest 2018.HDCAM.XViD.AC3-ETRG torrent
A Simple Favor 2018 NEW HDTS.XViD.AC3-ETRG torrent
The Predator 2018 NEW HDCAM.XViD.AC3 ETRG torrent
THE NUN 2018 NEW HDCAM-24HD torrent

ETTV Recommended Foreign
Ant-Man and the Wasp (2018) 720p BluRay x264 Dual Audio [Hindi DD5.1 (RM) DTH - English DD2.0] - Esub ~ Ranvijay torrent
Venom (2018) 720p HD-TS Hindi Dubbed ~ Team ShareSpark torrent
Loveyatri PreDvd Hindi 720p x264 AAC - mkvCinemas torrent
Andhadhun 2018 PreDvd Hindi 1GB x264 AAC - mkvCinemas torrent

Social


Download Torrent "Wrecked (2016) S03E06 (1080p WEBRip x265 HEVC 10bit AAC 2.0 Qman) [UTR]"

IMDB Details
Description:

N/A

Genre:

N/A

Download Torrent (Magnet)
Download Torrent (File)
Seeds: 120
Leechers: 6
Completed: 740 
Last Checked: 06-10-2018 16:09:37


Loading...
Details
Title:Wrecked (2016) S03E06 (1080p WEBRip x265 HEVC 10bit AAC 2.0 Qman) [UTR]
Description:





Media Information
General
Format                                   : Matroska
Format version                           : Version 4 / Version 2
File size                                : 523 MiB
Duration                                 : 20 min 59 s
Overall bit rate                         : 3 482 kb/s
Encoded date                             : UTC 2018-10-05 03:32:54
Writing application                      : mkvmerge v26.0.0 ('In The Game') 64-bit
Writing library                          : libebml v1.3.6 + libmatroska v1.4.9

Video
ID                                       : 1
Format                                   : HEVC
Format/Info                              : High Efficiency Video Coding
Format profile                           : Main [email protected]@Main
Codec ID                                 : V_MPEGH/ISO/HEVC
Duration                                 : 20 min 59 s
Bit rate                                 : 3 354 kb/s
Width                                    : 1 920 pixels
Height                                   : 1 080 pixels
Display aspect ratio                     : 16:9
Frame rate mode                          : Constant
Frame rate                               : 23.976 (24000/1001) FPS
Color space                              : YUV
Chroma subsampling                       : 4:2:0
Bit depth                                : 10 bits
Bits/(Pixel*Frame)                       : 0.067
Stream size                              : 504 MiB (96%)
Writing library                          : x265 2.8+68-fa57fa584898:[Windows][MSVC 1915][64 bit] 10bit
Encoding settings                        : cpuid=1111039 / frame-threads=4 / numa-pools=16 / wpp / no-pmode / no-pme / no-psnr / no-ssim / log-level=2 / input-csp=1 / input-res=1920x1080 / interlace=0 / total-frames=30202 / level-idc=0 / high-tier=1 / uhd-bd=0 / ref=3 / no-allow-non-conformance / no-repeat-headers / annexb / no-aud / no-hrd / info / hash=0 / no-temporal-layers / open-gop / min-keyint=23 / keyint=250 / gop-lookahead=0 / bframes=4 / b-adapt=2 / b-pyramid / bframe-bias=0 / rc-lookahead=20 / lookahead-slices=6 / scenecut=40 / radl=0 / no-intra-refresh / ctu=64 / min-cu-size=8 / no-rect / no-amp / max-tu-size=32 / tu-inter-depth=1 / tu-intra-depth=1 / limit-tu=0 / rdoq-level=1 / dynamic-rd=0.00 / no-ssim-rd / signhide / no-tskip / nr-intra=0 / nr-inter=0 / no-constrained-intra / no-strong-intra-smoothing / max-merge=2 / limit-refs=3 / no-limit-modes / me=3 / subme=2 / merange=57 / temporal-mvp / weightp / no-weightb / no-analyze-src-pics / deblock=-1:-1 / sao / no-sao-non-deblock / rd=3 / no-early-skip / rskip / no-fast-intra / no-tskip-fast / no-cu-lossless / no-b-intra / no-splitrd-skip / rdpenalty=0 / psy-rd=0.35 / psy-rdoq=0.00 / no-rd-refine / no-lossless / cbqpoffs=0 / crqpoffs=0 / rc=crf / crf=24.0 / qcomp=0.60 / qpstep=4 / stats-write=0 / stats-read=0 / ipratio=1.40 / pbratio=1.30 / aq-mode=3 / aq-strength=1.00 / cutree / zone-count=0 / no-strict-cbr / qg-size=32 / no-rc-grain / qpmax=69 / qpmin=0 / no-const-vbv / sar=0 / overscan=0 / videoformat=5 / range=0 / colorprim=2 / transfer=2 / colormatrix=2 / chromaloc=0 / display-window=0 / max-cll=0,0 / min-luma=0 / max-luma=1023 / log2-max-poc-lsb=8 / vui-timing-info / vui-hrd-info / slices=1 / no-opt-qp-pps / no-opt-ref-list-length-pps / no-multi-pass-opt-rps / scenecut-bias=0.05 / no-opt-cu-delta-qp / no-aq-motion / no-hdr / no-hdr-opt / no-dhdr10-opt / no-idr-recovery-sei / analysis-reuse-level=5 / scale-factor=0 / refine-intra=0 / refine-inter=0 / refine-mv=0 / no-limit-sao / ctu-info=0 / no-lowpass-dct / refine-mv-type=0 / copy-pic=1 / max-ausize-factor=1.0 / no-dynamic-refine / no-single-sei
Language                                 : English
Default                                  : Yes
Forced                                   : No

Audio
ID                                       : 2
Format                                   : AAC
Format/Info                              : Advanced Audio Codec
Format profile                           : LC
Codec ID                                 : A_AAC
Duration                                 : 20 min 59 s
Bit rate                                 : 126 kb/s
Channel(s)                               : 2 channels
Channel positions                        : Front: L R
Sampling rate                            : 44.1 kHz
Frame rate                               : 43.066 FPS (1024 spf)
Compression mode                         : Lossy
Stream size                              : 18.9 MiB (4%)
Language                                 : English
Default                                  : Yes
Forced                                   : No

Subtitle
ID                                       : 3
Format                                   : UTF-8
Codec ID                                 : S_TEXT/UTF8
Codec ID/Info                            : UTF-8 Plain Text
Duration                                 : 20 min 53 s
Bit rate                                 : 135 b/s
Count of elements                        : 479
Stream size                              : 20.8 KiB (0%)
Language                                 : English
Default                                  : Yes
Forced                                   : No

Source Information
Release: Unknown Source/NO-GROUP


UTR wrote:

Note From UTR
We have no issue with individuals posting or re-uploading our torrents on a platform we aren't on. However, if this is something you'd like to do, please do so in a 'as-is' format. We ask that you do not create a new torrent, include all descriptions you see above including the UTR logo, tags, notes and screenshots. If you'd like to become a permanent poster on a website we don't post to, feel free to get in contact with a UniTeam member.

If possible please donate: BTC 1QA5fum5AyXvWzdVCkQzUNvw3Ef15fHRaR


Category:TV > HEVC/x265
Lang:English  English
Total Size:523 MB
Info Hash:9ed8ac72a34f7eb77450ade0cd45081b1bad8f31
Added By:UTR
Date Added:06-10-2018 16:09:31

Files

File List: 
 File Size
Wrecked.(2016).S03E06.1080p.WEBRip.x265.10bit.AAC.2.0-Qman[UTR].mkv523 MB



Loading...
Comments

There are currently no comments. Be the first one to write something !

Disclaimer: None of the files shown here are actually hosted or transmitted by this server. The links are provided solely by this site's users. The site moderation is also a service provided by the site's users. The administrator of this site (ettv.tv) cannot be held responsible for what its users post, or any other actions of its users. You may not use this site to distribute or download any material when you do not have the legal rights to do so. It is your own responsibility to adhere to these terms.